Octoprint h264 stream. Dec 22, 2018 · axrtpu MJPEG, MPEG-4 and H.264 unicast RTP streams. axrtsp MJPEG, MPEG-4 and H.264 unicast RTSP streams. axrtsphttp MJPEG, MPEG-4 and H.264 unicast RTSP streams over HTTP. axrtsphttps MJPEG, MPEG-4 and H.264 unicast RTSP streams over HTTPS. axmpeghttp MPEG-2 unicast streams. axsdp MPEG-2, MPEG-4 and H.264 multicast streams without RTSP. See note 1. Real Time Streaming Protocol (RTSP) is a standard network protocol designed to establish and control media sessions between endpoints. Due to hardware limitations, RTSP could only be achieved as a separate firmware version for Wyze Cam v2, Wyze Cam v3, and Wyze Cam Pan.1. Arducam Pi Camera, Octoprint Octopi Webcam, Monitor 3D Printer, 3.28FT/100CM Long Extension Flex Ribbon Cable for Raspberry Pi. Features : 5MP camera module for 3D printer projects with Raspberry Pi, natively compatible with the official Raspberry Pi camera modules and motherboards. Used on OctoPi, Raspbian, MotionEye for 3D printer ...Dec 17, 2018 · The Raspberry Pi is a fantastic little computer for recording video. For about €50,- you can record in HD with full customizability and for as long as you want or have storage for. However, one issue is that the .h264 container it records in is hard to work with. It is therefore often important to […] If you're getting no output from your raspberry pi there's a number of things it could be. Luckily the majority of the time it's not as serious a problem as ...<id> - streaming channel - for example "101" would be channel 1 and stream #1 (mainstream). Changing the <id> to 102 would create channel 1 and stream #2. 201 would produce the channel #2 of the NVR and mainstream and 202 would produce channel #2 and substream.Dann gibt es noch MJPG-Streamer; oder Octoprint für 3D-Drucker. Du kannst auch via Pythonskript einen dauerhaften Stream sicherstellen, dafür gibt es einige geeignete Bibliotheken. Mit “OS” kannst du zum Beispiel alle Befehle nutzen, die auch im Terminal gehen. Auf unserem Instagram channel haben wir schon einmal einige aufgeführt. Viele ... The OctoPrint repo documents the mjpg-streamer plugin parameters. ... And it is sad that in 2015, mjpeg is the method of choice for live browser streaming when my camera can do 1080p h264 encoding in hardware. I have nearly gotten it all working with gstreamer, but my energy waxes and wanes. Maybe it is on the rise…Model: Tapo C200 Pan/Tilt Home Security Wi-Fi Camera Smart. Secure. Easy. 128GB Datasheet microSD Card Slot (up to 128 GB) Night Vision (up to 30 ft) Sep 15, 2020 · 041e:409d. Raspberry Pi OS (32 bits)/Buster. 2020-09-15. 1280x720. Out of the box works perfectly in Half HD (1280x720) with Chromium (Google Meet), Webcamoid and Cheese. In Full HD (1920x1080) the Raspberry Pi 4 lags badly (tested with Webcamoid). Creative. Re: Solution for video bandwidth problem using Octopi. Hello Tobias, Your calculation is not correct. 640x480x10 = 3,072,000 ( ~3MB/s) in raw data. Compressed MJPEG stream is usually around 300-600k in my setup. It highly depends where you mount the camera. If you want to have h264 stream I would suggest to: 1. Buy a camera which streams in h264.ブラウザで OctoPrint にアクセスし、電源アイコン (System) のプルダウンから Start video stream を選択して WebCam サーバー起動 ブラウザで以下の URL にアクセスすると Raspi カメラで撮影されたストリーミング動画を見ることができました。★【Full HD 1080P Webcam with Automatic Light Correction】Equipped with Full HD 1080P resolution and adopted the advanced H.264 compression techonology, the webcam powered by USB 2.0 port, delivers fabulous quality image at 30FPS, Thanks to autofocus... Change stream url in octoprint to /hls/stream.m3u8 The stream url will work correctly for octoprint (test will work, "Control" page will work), but not under the dashboard. Using HLS allows for much more compact/compressed streams with low cpu overhead as h264 can be passed straight through from the camera.I've also setup a webcam so that OctoPrint can stream the footage in real time, and also create awesome timelapses. Review For the last five years, the Logitech C920 has been the best affordable webcam for streamers and content creators. Do not reboot or start a new print while a timelapse rendering progress.The Hackspace recently took delivery of a Raspberry Pi NoIR Camera Module from Farnell - full details are on their website.It is an add-on camera module for the Raspberry Pi which has no infrared filter, making it perfect for taking infrared photographs or photographing objects in low light (twilight) conditions.health and beauty wholesalerunity export prefab as packageJan 04, 2020 · H264 is the only hardware-accelerated codec, for playback. No hardware encoding is supported. Additional codecs were not purchased as licensing fees would have increased the R-Pi's price. Notwithstanding the previous paragraph, omxplayer may be included in some versions of raspbian. It is a command line tool, and happily plays .flv files. OctoPrint adds a web interface to any printer and allows remote printing and monitoring. motionEyeOS is a Linux distribution that. The logitech c920 webcam is ideal for streaming since it provides a h264 output out-of-the box. Today I am going to show you how to install and configure the Cura Octoprint Plugin! Introduction. I have not.$ omxplayer examplevid.h264. This will play it, but only on your actual display. If you're connected via remote desktop, you might not see the video, at least I didn't, and instead it showed up on the actual connected screen. In the next tutorial, we're going to get into the GPIO pins for the Raspberry Pi, and a new sensor. FULL HD 1080P Webcam. FULL HD 1080P Webcam provides more clarity video calling, streaming, conferencing. Max Resolution up to 1920 x 1080 pixels, never miss any details. Benefit from H.264 compression, you can get faster, smoother HD video experiences.Dec 17, 2018 · The Raspberry Pi is a fantastic little computer for recording video. For about €50,- you can record in HD with full customizability and for as long as you want or have storage for. However, one issue is that the .h264 container it records in is hard to work with. It is therefore often important to […] Mar 06, 2021 · 출처 Build FFMPEG, x264 and FDK-AAC Raspberry Pi Camera Live Streaming How to install FFMPEG, Libx264, LibRTMP, LibAACPlus, LibVPX on the Raspberry Pi (Debian “Wheezy” ARMHF) ffmpeg native build -.. Using UV4L for h.264 would be so much smoother and would probably help with latency issues Im having whilst away from home. It seems a no brainer to me. I know I can set up a stream seperate to octoprint with UV4L but it would be a lot nicer if it was embedded into Octopi. I will take that the answer to my request is no then.Mar 06, 2021 · 출처 Build FFMPEG, x264 and FDK-AAC Raspberry Pi Camera Live Streaming How to install FFMPEG, Libx264, LibRTMP, LibAACPlus, LibVPX on the Raspberry Pi (Debian “Wheezy” ARMHF) ffmpeg native build -.. Octopi comes preinstalled with ffmpeg version 4.1.4-1+rpt1~deb10u1 and that is awesome because since version 3, it supports hardware-acceleration for h264-encoding on all raspberrys! This means it should use no cpu-resources at all to provide a high-res realtime-webcam-stream in h264!OctoPrint adds a web interface to any printer and allows remote printing and monitoring. motionEyeOS is a Linux distribution that. The logitech c920 webcam is ideal for streaming since it provides a h264 output out-of-the box. Today I am going to show you how to install and configure the Cura Octoprint Plugin! Introduction. I have not.# Capture 30 seconds of raw video at 640x480 and 150kB/s bit rate into a pivideo.h264 file: raspivid -t 30000 -w 640 -h 480 -fps 25 -b 1200000 -p 0,0,640,480 -o pivideo.h264 # Wrap the raw video with an MP4 container: MP4Box -add pivideo.h264 pivideo.mp4 # Remove the source raw file, leaving the remaining pivideo.mp4 file to play rm pivideo.h264Jan 31, 2021 · 2. YDNS. Based out of Germany, YDNS is a free Dynamic DNS provider that only asks for you to sign up with your email address and password before you start using it. Unless you’re using a custom domain name, you’re restricted to using the “ydns.eu” domain, but for many people, that will suffice. Academia.edu is a platform for academics to share research papers. [0x1f906b8] main stream debug: received first data after 0 ms [0x1f906b8] main stream debug: pre-buffering done 296 bytes in 0s - 505 KiB/s [0x1f8ff38] main stream debug: looking for stream_filter module: 7 candidates [0x1f8ff38] main stream debug: no stream_filter module matching "any" could be loadedAmaze your friends with your own YOUR HAND Scratch quiz game 120 PRINTING WITH RASPBERRY PI Control a servo with a flick of the wrist Learn how to install and configure using UltraBorg 112 ADD A SCRATCH GAME TITLE SCREEN a printer on the Pi Make your Scratch game look more 130 STREAM STEAM GAMES TO PI professional with a title screen 122 3D ... ayahuasca visuals redditelasticsearch disable dynamic mappingModel: Tapo C200 Pan/Tilt Home Security Wi-Fi Camera Smart. Secure. Easy. 128GB Datasheet microSD Card Slot (up to 128 GB) Night Vision (up to 30 ft) Search: Octoprint C920 Settings. About Settings Octoprint C920Dec 30, 2021 · See HWAccelIntro for information on supported hardware H.264 encoders and decoders. Encoding for dumb players. You may need to use -vf format=yuv420p (or the alias -pix_fmt yuv420p) for your output to work in QuickTime and most other players. These players only support the YUV planar color space with 4:2:0 chroma subsampling for H.264 video. Cutehmi 122 ⭐. CuteHMI is an open-source HMI (Human Machine Interface) software written in C++ and QML, using Qt libraries as a framework. GitHub repository is a mirror! Ev3Dev Lang Java 84 ⭐. A project to learn Java and create software for Mindstorms Robots using hardware supported by EV3Dev & the LeJOS way. Keep in mind, for a Plex Server, this can only send out the original stream. If your device can't handle the codec or compression and needs the Plex Server to transcode, it won't work, so make certain your device can handle the streams. Latest Rokus can do just fine with H.264, older ones, not so much.# Capture 30 seconds of raw video at 640x480 and 150kB/s bit rate into a pivideo.h264 file: raspivid -t 30000 -w 640 -h 480 -fps 25 -b 1200000 -p 0,0,640,480 -o pivideo.h264 # Wrap the raw video with an MP4 container: MP4Box -add pivideo.h264 pivideo.mp4 # Remove the source raw file, leaving the remaining pivideo.mp4 file to play rm pivideo.h264Stream #0:0: Video: mjpeg (Baseline), yuvj422p(pc, bt470bg/unknown/unknown), 1280x720, 30 fps, 30 tbr, 1k tbn, 1k tbc (default) If you choose wrong parameters, the resolution might be slow. The camera already outputs a specific encoded format, and the simplest way to record is to just copy that format as above: Primarily using the camera with Octoprint to monitor 3D printing progress. Installs easily - ribbon cable is a bit short, but I've mounted the camera and the Rpi together on an arm to the printer. Image is a bit soft regardless of focal distance - everything isn't super sharp regardless of distance to the lens. This webcam for OctoPrint is designed to live stream the printing to an audience without any lag. It can stream a 1080p or 720p video at a 30 fps rate. The device can also capture audio during the live stream as it features two noise-reducing microphones on both sides. Can be used alone or in combination with OctoPrint web UI and/or OctoFarm for the ultimate in flexibility and productivity. Whether you have 2 or 200 printers to manage, OctoFarm is a superior solution for running managing multiple OctoPrint instances.I've also setup a webcam so that OctoPrint can stream the footage in real time, and also create awesome timelapses. Review For the last five years, the Logitech C920 has been the best affordable webcam for streamers and content creators. Do not reboot or start a new print while a timelapse rendering progress.62 indonesia textiles suppliers manufacturers yahoo com gmail com hotmail com 2018wholesale petrol priceSearch: Octoprint C920 Settings. About Settings Octoprint C920If you have installed docker on the Raspberry Pi, and are running OctoPrint inside the docker containers, you won't get the Premium Streaming either. info The reason why Raspberry Pi is required for the Premium Streaming is because it has a special hardware accelerator required to encode H.264 video efficiently. The settings for Digoo cameras are built right into our free surveillance software - click "Add" then "IP camera with wizard" to automatically setup your Digoo cameras. Remember to also try connecting via ONVIF as Digoo cameras may support ONVIF connections as well. Start typing in the "Make" box to find your camera. Jul 11, 2017 · Yes, you could just transcode the whole stream of any source format, be it mjpg, single jpgs or h264 and push that out as an mp4 http stream. But then that whole work has to be done by the system's CPU. Which - in case of OctoPrint's common runtime scenario - is severely limited. OctoPrint adds a web interface to any printer and allows remote printing and monitoring. motionEyeOS is a Linux distribution that. The logitech c920 webcam is ideal for streaming since it provides a h264 output out-of-the box. Today I am going to show you how to install and configure the Cura Octoprint Plugin! Introduction. I have not.Nov 18, 2018 · Not saying sending h264 is off the table, but if h264->mjpeg ends up being easier for a pi to do than the pipeline that's in place now, then that's what I'll use. Weird thing mjpeg streamer allready used just 3-7% on my old RPi1. It uses ~3% on my RPi3 (streaming 1920x1080x30), and about the same on my Odroid XU4. Jul 29, 2018 · Using UV4L for h.264 would be so much smoother and would probably help with latency issues Im having whilst away from home. It seems a no brainer to me. I know I can set up a stream seperate to octoprint with UV4L but it would be a lot nicer if it was embedded into Octopi. I will take that the answer to my request is no then. I've also setup a webcam so that OctoPrint can stream the footage in real time, and also create awesome timelapses. Review For the last five years, the Logitech C920 has been the best affordable webcam for streamers and content creators. Do not reboot or start a new print while a timelapse rendering progress.This webcam for OctoPrint is designed to live stream the printing to an audience without any lag. It can stream a 1080p or 720p video at a 30 fps rate. The device can also capture audio during the live stream as it features two noise-reducing microphones on both sides. Stream #0:0: Video: mjpeg (Baseline), yuvj422p(pc, bt470bg/unknown/unknown), 1280x720, 30 fps, 30 tbr, 1k tbn, 1k tbc (default) If you choose wrong parameters, the resolution might be slow. The camera already outputs a specific encoded format, and the simplest way to record is to just copy that format as above: Search: Octoprint C920 Settings. About Settings Octoprint C9203D printing can be an interesting task, especially if you get to watch the entire process. Unfortunately, this will not always be possible since some prints may take a lot of time. That is where octoprint comes in! With this open-source software, you can monitor and control your 3D printer from any place in the … 10 Best Cameras for OctoPrint Octolapse (Reviews in 2022) Read More » I'm making my own arch image to my octoprint server. I have most of it the way I like it, but I'm stuck trying to stream video as h264. I'd like to throw the stream through the octoprint web interface, and allow it to tie in and snag a frame every now and then for timelapse videos. File tarina-body.gcode (18.3MB via OctoPrint) User rbckman Elapsed 4 hours 12 minutes Remaining 1 hour 23 minutes ETA 11:49 PM today Printer: Printing, Bed: 55.0°C/55.0°C, Nozzle: 215.42°C/215.0°C, Nozzle Height: 28.02mm, RasPi: 46.7°CMay 30, 2020 · Using a Raspberry Pi Zero with its on-the-go USB port in ‘peripheral’ mode, we can make the Pi look like a USB webcam. And what’s even better is that Windows will recognise it as a Camera and automatically install the drivers for you. Here’s a video of the setup, with demo of it booting. So the first thing to do is install RaspiOS on an ... raspivid -o Desktop/video.h264. Setup of Python Camera Stream. Now that we've confirmed that the camera module is working we can now move into installing the following dependencies and the GitHub Repo. Upgrading your Pi: Make sure that all your libraries and packages are up to date by running the below following commands:Aug 13, 2018 · OctoPrint-RTMPStreamer. OctoPrint-Prusa-Mini-ETA OctoPrint-RepetierInformer. Plugin that reencodes the mjpg stream provided by octopi/mjpgstreamer/yawcam and posts to any RTMP stream server (ie Twitch) and adds a tab that will allow for wathing configured stream assuming there is a webpage url that allows that type of connection. embuary helper matrixsomething was wrong season 9 artieSo the DVR records main stream 1080p h265. And the second stream 960p is h264 which the pi receives. This way the DVR stays off the web, and I can have live view on the home assistant app with the ...raspivid -o Desktop/video.h264. Setup of Python Camera Stream. Now that we've confirmed that the camera module is working we can now move into installing the following dependencies and the GitHub Repo. Upgrading your Pi: Make sure that all your libraries and packages are up to date by running the below following commands:Dec 22, 2018 · axrtpu MJPEG, MPEG-4 and H.264 unicast RTP streams. axrtsp MJPEG, MPEG-4 and H.264 unicast RTSP streams. axrtsphttp MJPEG, MPEG-4 and H.264 unicast RTSP streams over HTTP. axrtsphttps MJPEG, MPEG-4 and H.264 unicast RTSP streams over HTTPS. axmpeghttp MPEG-2 unicast streams. axsdp MPEG-2, MPEG-4 and H.264 multicast streams without RTSP. See note 1. The Premium Streaming (advanced mode) has to take total control of the webcam, such as the resolution, frame rate, auto-focus, etc., so that the stream can be encoded in highly-efficient H.264. note If you have changed webcam settings in "octopi.txt", you may be surprised to see these settings are no longer effective in the Premium Streaming ... 1. Arducam Pi Camera, Octoprint Octopi Webcam, Monitor 3D Printer, 3.28FT/100CM Long Extension Flex Ribbon Cable for Raspberry Pi. Features : 5MP camera module for 3D printer projects with Raspberry Pi, natively compatible with the official Raspberry Pi camera modules and motherboards. Used on OctoPi, Raspbian, MotionEye for 3D printer ...Aug 03, 2020 · How to Overclock a Raspberry Pi. 1. Attach a fan or heatsink to the Raspberry Pi before powering on. A Raspberry Pi 4 with Pimoroni’s Fan Shim providing active cooling. (Image credit: Tom's ... Octoprint is a popular open-source 3D printer controller software that runs on Raspberry Pi boards, Orange Pi Lite SBC, Amlogic TV boxes, and other devices. But considering many people may already an older, perfectly working smartphones at home, FeelFree (Filip) decided to create the Octo4a project that install an Octoprint server on Android ...Aug 03, 2020 · How to Overclock a Raspberry Pi. 1. Attach a fan or heatsink to the Raspberry Pi before powering on. A Raspberry Pi 4 with Pimoroni’s Fan Shim providing active cooling. (Image credit: Tom's ... ★【Full HD 1080P Webcam with Automatic Light Correction】Equipped with Full HD 1080P resolution and adopted the advanced H.264 compression techonology, the webcam powered by USB 2.0 port, delivers fabulous quality image at 30FPS, Thanks to autofocus... fluidd ubuntuwoocommerce delivery slots pluginCertains hébergeurs demandent de renseigner le GUID en Base 64, Si l’on inspecte les requettes envoyés par le navigateur l’ors de l’ouverture d’un fichier smooth streaming DRMizé, on peux trouver le GUID en Base 64. OctoPrint is a great tool and something I strongly recommend to everyone. I've also setup a webcam so that OctoPrint can stream the footage in real time, and also create awesome timelapses. I have a Logitech C920 - one of the highest regarded webcams available, and yet I was still getting poor results.And there is a plugin in octoprint to use multiple webcams. I guess I can run a second octoprint container and just use the stream url pasted into the first container, but it seems overkill to run a whole separate container and octoprint instance just to setup a second webcam for the first instance.H.264 SVC. As covered in various other articles the H.264 SVC implementation in Lync is used by default for all native 2013 calling scenarios as well in certain third-party interoperability scenarios (e.g. Polycom Group Series with at least 4.1.3 firmware). a=rtpmap:122 X-H264UC/90000 a=fmtp:122 packetization-mode=1;mst-mode=NI-TCMJPEG IP cameras send a steady stream of JPEG images as motion video while H.264 IP cameras use H.264 video format offering better compression and video quality. If your IP camera supports both compressions, ManyCam recommends using H.264 as it offers better quality and requires less bandwidth.1. Arducam Pi Camera, Octoprint Octopi Webcam, Monitor 3D Printer, 3.28FT/100CM Long Extension Flex Ribbon Cable for Raspberry Pi. Features : 5MP camera module for 3D printer projects with Raspberry Pi, natively compatible with the official Raspberry Pi camera modules and motherboards. Used on OctoPi, Raspbian, MotionEye for 3D printer ...The version of mjpg-streamer I use is the same one that Octoprint uses, so it comes from a specific github repository. ... A much better solution is to use h264. I was forced to use MJPG for ...If you have installed docker on the Raspberry Pi, and are running OctoPrint inside the docker containers, you won't get the Premium Streaming either. info The reason why Raspberry Pi is required for the Premium Streaming is because it has a special hardware accelerator required to encode H.264 video efficiently. Jul 23, 2019 · Foto e Video Fotocamera grandangolare da 14 MPx Video: 1080p Full HD Streaming video: 360p/720p. 50. Peso: 72 g. 800 974 077 | www.campustore.it | [email protected] Robotica - droni. Laboratori ... MJPEG IP cameras send a steady stream of JPEG images as motion video while H.264 IP cameras use H.264 video format offering better compression and video quality. If your IP camera supports both compressions, ManyCam recommends using H.264 as it offers better quality and requires less bandwidth.With 1080p video resolution, the HZQDLN Webcam is already a good choice for the average user—but H.264 compression makes it ideal for streamers on a budget. Pros Shoots in 1080p Full HD video ...Oct 03, 2020 · Raspberry Pi Camera Live Streaming. How to install FFMPEG, Libx264, LibRTMP, LibAACPlus, LibVPX on the Raspberry Pi (Debian “Wheezy” ARMHF) ffmpeg native build - my experience. Installing FFMPEG for Raspberry Pi. 파이카메라 활용강좌 : RTMP를 이용한 웹으로 H264 영상전송. If you're getting no output from your raspberry pi there's a number of things it could be. Luckily the majority of the time it's not as serious a problem as ...Cutehmi 122 ⭐. CuteHMI is an open-source HMI (Human Machine Interface) software written in C++ and QML, using Qt libraries as a framework. GitHub repository is a mirror! Ev3Dev Lang Java 84 ⭐. A project to learn Java and create software for Mindstorms Robots using hardware supported by EV3Dev & the LeJOS way. <id> - streaming channel - for example "101" would be channel 1 and stream #1 (mainstream). Changing the <id> to 102 would create channel 1 and stream #2. 201 would produce the channel #2 of the NVR and mainstream and 202 would produce channel #2 and substream.Search: Octoprint C920 Settings. About Settings Octoprint C9202016-08-05 · Webcam MJPG capture streams are unavailable on Windows 10. On Windows 10 build 10.1607.14393.10 (aka Anniversary edition) I am unable to get MJPG capture streams anymore. Used to be both MJPG and YUY2 resolutions, now I am getting only YUY2 in DirectShow (Kernel Streaming) and in Media Foundation MJPG converted media types into … 1 7 1.7 Python mjpg-streamer VS simpsons-shuffler. A guide to a raspberry pi shuffler for tv shows. NOTE: The number of mentions on this list indicates mentions on common posts plus user suggested alternatives. Hence, a higher number means a better mjpg-streamer alternative or higher similarity. Suggest an alternative to mjpg-streamer.Yes, you could just transcode the whole stream of any source format, be it mjpg, single jpgs or h264 and push that out as an mp4 http stream. But then that whole work has to be done by the system's CPU. Which - in case of OctoPrint's common runtime scenario - is severely limited.gtk vs electronstm32 rtc vbatRecommended Ingest Endpoints For You These ingests endpoints are selected for you based on the optimal network paths detected from Twitch to your deviceMar 06, 2021 · 출처 Build FFMPEG, x264 and FDK-AAC Raspberry Pi Camera Live Streaming How to install FFMPEG, Libx264, LibRTMP, LibAACPlus, LibVPX on the Raspberry Pi (Debian “Wheezy” ARMHF) ffmpeg native build -.. 6.1.1. Misconception #1¶. The Pi's camera module is basically a mobile phone camera module. Mobile phone digital cameras differ from larger, more expensive, cameras in a few respects.The most important of these, for understanding the Pi's camera, is that many mobile cameras (including the Pi's camera module) use a rolling shutter to capture images.Dann gibt es noch MJPG-Streamer; oder Octoprint für 3D-Drucker. Du kannst auch via Pythonskript einen dauerhaften Stream sicherstellen, dafür gibt es einige geeignete Bibliotheken. Mit “OS” kannst du zum Beispiel alle Befehle nutzen, die auch im Terminal gehen. Auf unserem Instagram channel haben wir schon einmal einige aufgeführt. Viele ... Oct 03, 2020 · Raspberry Pi Camera Live Streaming. How to install FFMPEG, Libx264, LibRTMP, LibAACPlus, LibVPX on the Raspberry Pi (Debian “Wheezy” ARMHF) ffmpeg native build - my experience. Installing FFMPEG for Raspberry Pi. 파이카메라 활용강좌 : RTMP를 이용한 웹으로 H264 영상전송. If you have installed docker on the Raspberry Pi, and are running OctoPrint inside the docker containers, you won't get the Premium Streaming either. info The reason why Raspberry Pi is required for the Premium Streaming is because it has a special hardware accelerator required to encode H.264 video efficiently. FULL HD 1080P Webcam. FULL HD 1080P Webcam provides more clarity video calling, streaming, conferencing. Max Resolution up to 1920 x 1080 pixels, never miss any details. Benefit from H.264 compression, you can get faster, smoother HD video experiences.IP Webcam turns your phone into a network camera with multiple viewing options. View your camera on any platform with VLC player or web browser. Stream video inside WiFi network without internet access. Optional Ivideon cloud broadcasting is supported for instant global access. Two-way audio supported in tinyCam Monitor on another android device.OctoPrint adds a web interface to any printer and allows remote printing and monitoring. motionEyeOS is a Linux distribution that. The logitech c920 webcam is ideal for streaming since it provides a h264 output out-of-the box. Today I am going to show you how to install and configure the Cura Octoprint Plugin! Introduction. I have not.Earlier this month, I wrote a Quick Start Guide for Orange Pi Allwinner H3 boards such as Orange Pi PC, and showed how to install and configure Debian on the boards.I've also received the $5.90 Orange Pi camera, which when combined an Orange Pi PC, costs around $27 including shipping.So today, I've attached the CSI camera to my Orange Pi 2 mini board, and used it with motion to transform ...So the DVR records main stream 1080p h265. And the second stream 960p is h264 which the pi receives. This way the DVR stays off the web, and I can have live view on the home assistant app with the ...If you are not running OctoPrint on a Raspberry Pi, The Spaghetti Detective plugin will fall back to the Basic Streaming. info The reason why Raspberry Pi is required for the Premium Streaming is because it has a special hardware accelerator required to encode H.264 video efficiently. Not saying sending h264 is off the table, but if h264->mjpeg ends up being easier for a pi to do than the pipeline that's in place now, then that's what I'll use. Weird thing mjpeg streamer allready used just 3-7% on my old RPi1. It uses ~3% on my RPi3 (streaming 1920x1080x30), and about the same on my Odroid XU4.Re: Solution for video bandwidth problem using Octopi. Hello Tobias, Your calculation is not correct. 640x480x10 = 3,072,000 ( ~3MB/s) in raw data. Compressed MJPEG stream is usually around 300-600k in my setup. It highly depends where you mount the camera. If you want to have h264 stream I would suggest to: 1. Buy a camera which streams in h264.Can be used alone or in combination with OctoPrint web UI and/or OctoFarm for the ultimate in flexibility and productivity. Whether you have 2 or 200 printers to manage, OctoFarm is a superior solution for running managing multiple OctoPrint instances.Amaze your friends with your own YOUR HAND Scratch quiz game 120 PRINTING WITH RASPBERRY PI Control a servo with a flick of the wrist Learn how to install and configure using UltraBorg 112 ADD A SCRATCH GAME TITLE SCREEN a printer on the Pi Make your Scratch game look more 130 STREAM STEAM GAMES TO PI professional with a title screen 122 3D ... The Premium Streaming (advanced mode) has to take total control of the webcam, such as the resolution, frame rate, auto-focus, etc., so that the stream can be encoded in highly-efficient H.264. note If you have changed webcam settings in "octopi.txt", you may be surprised to see these settings are no longer effective in the Premium Streaming ... kairos retreatwhy did my nft disappearLast update on 2022-03-20 / Affiliate links / Images from Amazon Product Advertising API. If you want a bit of guidance however you can always consult the list of cameras known to work with OctoPrint here.. I had originally started off with a Raspberry Pi Camera and then eventually moved on to a Logitech C920. Had I known then what I know now about just what we can tweak with cameras in ...Feb 04, 2020 · H.264 uses both types of compression – spatial and temporal – and has become the predominant type of video compression in the video industry, which includes online video streaming and ... $ omxplayer examplevid.h264. This will play it, but only on your actual display. If you're connected via remote desktop, you might not see the video, at least I didn't, and instead it showed up on the actual connected screen. In the next tutorial, we're going to get into the GPIO pins for the Raspberry Pi, and a new sensor. May 28, 2019 · Default 1 (off) H264 Profile options : baseline,main,high H264 Level options : 4,4.1,4.2 H264 Intra refresh options : cyclic,adaptive,both,cyclicrows Raw output format options : yuv,rgb,gray How to Stream Video Remotely From Raspberry Pi Jul 23, 2019 · Foto e Video Fotocamera grandangolare da 14 MPx Video: 1080p Full HD Streaming video: 360p/720p. 50. Peso: 72 g. 800 974 077 | www.campustore.it | [email protected] Robotica - droni. Laboratori ... Default 1 (off) H264 Profile options : baseline,main,high H264 Level options : 4,4.1,4.2 H264 Intra refresh options : cyclic,adaptive,both,cyclicrows Raw output format options : yuv,rgb,gray How to Stream Video Remotely From Raspberry PiAug 11, 2013 · Capture 20s of h264 video: raspivid -t 20000 -o video.h264. Take a 640x480 shot: raspistill -o image.jpg -w 640 -h 480. ... You can fire a video stream from the Raspberry Pi over your network ... Printer stutters #### Did the same happen when running OctoPrint in safe mode? * occurred * uninstalled disabled plugins and it occurred * ran in safe mode and it occurred #### Version of OctoPrint 1.3.11 #### Operating System running OctoPrint Octopi 0.15.1 - octopi 4.14.34-v7+ #1110 SMP Mon Apr 16 15:18:51 BST 2018 armv7l GNU/Linux ... FFMPEG is one of those tools I use when I just want to quickly hack together a video and don't need fancy things like editing, titles, or a user-interface. Compiling on a regular computer isn't easy, but compiling for the Raspberry Pi takes a little more patience and care.I also wanted to include support for H264 video, which needs to be installed before compiling FFMPEG.H.264 SVC. As covered in various other articles the H.264 SVC implementation in Lync is used by default for all native 2013 calling scenarios as well in certain third-party interoperability scenarios (e.g. Polycom Group Series with at least 4.1.3 firmware). a=rtpmap:122 X-H264UC/90000 a=fmtp:122 packetization-mode=1;mst-mode=NI-TCAug 03, 2020 · How to Overclock a Raspberry Pi. 1. Attach a fan or heatsink to the Raspberry Pi before powering on. A Raspberry Pi 4 with Pimoroni’s Fan Shim providing active cooling. (Image credit: Tom's ... Sep 10, 2012 · Configure Plex to Stream Live TV From HDHomeRun PRIME September 29, 2015 ... H. 264 [email protected], ... Setup OctoPrint, OctoScreen & HyperPixel4 Easily March 2 ... The version of mjpg-streamer I use is the same one that Octoprint uses, so it comes from a specific github repository. ... A much better solution is to use h264. I was forced to use MJPG for ...May 19, 2021 · 2. Handbrake. Available on: Windows, Mac, Linux. Handbrake is a fantastic open-source DVD ripper. It's a completely free Blu-ray ripper. Aside from ripping DVDs and Blu-rays, Handbrake can do lots of clever things, including converting videos, adding subtitles to films, and more. Recommended Ingest Endpoints For You These ingests endpoints are selected for you based on the optimal network paths detected from Twitch to your deviceThis webcam for OctoPrint is designed to live stream the printing to an audience without any lag. It can stream a 1080p or 720p video at a 30 fps rate. The device can also capture audio during the live stream as it features two noise-reducing microphones on both sides. The codec can be the name of any supported decoder/encoder or a special value copy that simply copies the input stream. Convert a video file from mp4 to webm using the libvpx video codec and libvorbis audio codec: ffmpeg -i input.mp4 -c:v libvpx -c:a libvorbis output.webm; Convert an audio file from mp3 to ogg encoded with the libopus codec.Stream #0:0: Video: mjpeg (Baseline), yuvj422p(pc, bt470bg/unknown/unknown), 1280x720, 30 fps, 30 tbr, 1k tbn, 1k tbc (default) If you choose wrong parameters, the resolution might be slow. The camera already outputs a specific encoded format, and the simplest way to record is to just copy that format as above: shadel funeral homeconnect atomstack to lightburn L1a